高清电影
首页 > VIP劲爆电影 > 剧情《寂寞的少女》美国 | 诱惑波

剧情《寂寞的少女》美国 | 诱惑波

◎译  名 寂寞的少女/寂寞女士/锁不住的诱惑
◎片  名 The Lonely Lady
◎年  代 1983
◎产  地 美国
◎类  别 剧情
◎语  言 英语
◎上映日期 1983-09-30
◎豆瓣评分 /10 from 0 users
◎豆瓣链接 https://movie.douban.com/subject/1304077/
◎片  长 92 分钟
◎导  演 彼得·萨斯迪 Peter Sasdy
◎编  剧 哈罗德·罗宾斯 Harold Robbins / John Kershaw John Kershaw / Ellen Shepard Ellen Shepard / Shawn Randall Shawn Randall
◎主  演 皮娅·扎多拉 Pia Zadora
洛伊德·波奇纳 Lloyd Bochner
雷·利奥塔 Ray Liotta
Cindy Leadbetter Cindy Leadbetter
Jared Martin Jared Martin
Richard Oneto Richard Oneto
肯尼思·纳尔逊 Kenneth Nelson
Craig Kelly Craig Kelly
桑德拉·迪金森 Sandra Dickinson
米基·诺克斯 Mickey Knox
奥利维尔·皮埃尔 Olivier Pierre
安东尼·霍兰德 Anthony Holland
比比·贝什 Bibi Besch
格洛瑞·安恩 Glory Annen
艾德·毕肖普 Ed Bishop
约瑟夫·卡利 Joseph Cali
Cyrus Elias Cyrus Elias
Daphna Kastner Daphna Kastner

◎标  签 美国电影 | 欧美 | 美国 | 诱惑波 | HBO | 1983 | nihapo | SonychenReviews

◎简  介

暂无相关剧情介绍
Video
ID : 1
Format : AVC
Format/Info : Advanced Video Codec
Format profile : High@L4.1
Format settings : CABAC / 9 Ref Frames
Format settings, CABAC : Yes
Format settings, Reference frames : 9 frames
Codec ID : V_MPEG4/ISO/AVC
Duration : 1 h 31 min
Bit rate : 8 254 kb/s
Width : 1 280 pixels
Height : 688 pixels
Display aspect ratio : 1.85:1
Frame rate mode : Constant
Frame rate : 23.976 (24000/1001/189150) FPS
Color space : YUV
Chroma subsampling : 4:2:0
Bit depth : 8 bits
Scan type : Progressive
Bits/(Pixel*Frame) : 0.391
Stream size : 5.28 GiB (95%)
Writing library : x264 core 164 r3065 ae03d92
Encoding settings : cabac=1 / ref=9 / deblock=1:-3:-3 / analyse=0x3:0x133 / me=umh / subme=10 / psy=1 / psy_rd=1.00:0.15 / mixed_ref=1 / me_range=24 / chroma_me=1 / trellis=2 / 8x8dct=1 / cqm=0 / deadzone=21,11 / fast_pskip=1 / chroma_qp_offset=-3 / threads=21 / lookahead_threads=3 / sliced_threads=0 / nr=0 / decimate=1 / interlaced=0 / bluray_compat=0 / constrained_intra=0 / bframes=8 / b_pyramid=2 / b_adapt=2 / b_bias=0 / direct=3 / weightb=1 / open_gop=0 / weightp=2 / keyint=250 / keyint_min=23 / scenecut=40 / intra_refresh=0 / rc_lookahead=60 / rc=crf / mbtree=1 / crf=20.0 / qcomp=0.60 / qpmin=0 / qpmax=69 / qpstep=4 / ip_ratio=1.40 / aq=3:0.60
Language : English
Default : Yes
Forced : No
Color range : Limited
Matrix coefficients : BT.709

Audio
ID : 2
Format : FLAC
Format/Info : Free Lossless Audio Codec
Codec ID : A_FLAC
Duration : 1 h 31 min
Bit rate mode : Variable
Bit rate : 439 kb/s
Channel(s) : 2 channels
Channel layout : L R
Sampling rate : 48.0 kHz
Frame rate : 11.719 FPS (4096 SPF)
Bit depth : 16 bits
Compression mode : Lossless
Stream size : 287 MiB (5%)
Writing library : libFLAC 1.2.1 (UTC 2007-09-17)
Language : English
Default : Yes
Forced : No

Text #1
ID : 3
Format : UTF-8
Codec ID : S_TEXT/UTF8
Codec ID/Info : UTF-8 Plain Text
Duration : 1 h 30 min
Bit rate : 65 b/s
Count of elements : 1161
Stream size : 43.6 KiB (0%)
Title : English
Language : English
Default : No
Forced : No

Text #2
ID : 4
Format : UTF-8
Codec ID : S_TEXT/UTF8
Codec ID/Info : UTF-8 Plain Text
Duration : 1 h 31 min
Bit rate : 79 b/s
Count of elements : 1546
Stream size : 53.3 KiB (0%)
Title : English SDH
Language : English
Default : No
Forced : No

Text #3
ID : 5
Format : PGS
Muxing mode : zlib
Codec ID : S_HDMV/PGS
Codec ID/Info : Picture based subtitle format used on BDs/HD-DVDs
Duration : 1 h 31 min
Bit rate : 63.4 kb/s
Count of elements : 2599
Stream size : 41.3 MiB (1%)
Title : English
Language : English
Default : No
Forced : No

Menu
00:00:00.000 : :Chapter 01
00:07:29.366 : :Chapter 02
00:13:31.811 : :Chapter 03
00:21:42.218 : :Chapter 04
00:31:59.626 : :Chapter 05
00:40:23.588 : :Chapter 06
00:48:03.798 : :Chapter 07
00:55:03.383 : :Chapter 08
01:03:43.945 : :Chapter 09
01:13:51.010 : :Chapter 10
01:21:12.785 : :Chapter 11
01:28:27.344 : :Chapter 12

剧情《寂寞的少女》美国 | 诱惑波 剧情《寂寞的少女》美国 | 诱惑波

下载地址被隐藏,请输入验证码查看内容:
验证码:
【第一步】:请先微信扫码支付20元。(全站通用)
【第二步】:①支付后-▶②查看微信支付凭证-▶③联系收款方。
才能收到验证码。    

通知:20元是全站通用验证码,通用本站所有VIP电影。

-----不联系收款方的!无法收到验证码。-----

-----看到留言后,会发给你验证码-----
-----人工回复,做不到时时刻刻秒回复,敬请谅解。-----

-----如遇版权问题-----
-----联系我们,会第一时间删除,请大家支持正版电影,去电影院观看!-----
/